  0
SECTION
  2
HEADER
  9
$ACADVER
  1
AC1015
  9
$ACADMAINTVER
 70
     6
  9
$DWGCODEPAGE
  3
ANSI_1252
  9
$INSBASE
 10
0.0
 20
0.0
 30
0.0
  9
$EXTMIN
 10
-218.394245
 20
-139.478494
 30
0.0
  9
$EXTMAX
 10
621.605755
 20
454.521506
 30
0.0
  9
$LIMMIN
 10
-218.394245
 20
-139.478494
  9
$LIMMAX
 10
621.605755
 20
454.521506
  9
$ORTHOMODE
 70
     0
  9
$REGENMODE
 70
     1
  9
$FILLMODE
 70
     1
  9
$QTEXTMODE
 70
     0
  9
$MIRRTEXT
 70
     1
  9
$LTSCALE
 40
2.0
  9
$ATTMODE
 70
     1
  9
$TEXTSIZE
 40
2.5
  9
$TRACEWID
 40
1.0
  9
$TEXTSTYLE
  7
Standard
  9
$CLAYER
  8
0
  9
$CELTYPE
  6
ByLayer
  9
$CECOLOR
 62
     7
  9
$CELTSCALE
 40
1.0
  9
$DISPSILH
 70
     0
  9
$DIMSCALE
 40
2.0
  9
$DIMASZ
 40
3.5
  9
$DIMEXO
 40
0.625
  9
$DIMDLI
 40
3.75
  9
$DIMRND
 40
0.0
  9
$DIMDLE
 40
0.0
  9
$DIMEXE
 40
1.25
  9
$DIMTP
 40
0.0
  9
$DIMTM
 40
0.0
  9
$DIMTXT
 40
3.5
  9
$DIMCEN
 40
2.5
  9
$DIMTSZ
 40
0.0
  9
$DIMTOL
 70
     0
  9
$DIMLIM
 70
     0
  9
$DIMTIH
 70
     0
  9
$DIMTOH
 70
     0
  9
$DIMSE1
 70
     0
  9
$DIMSE2
 70
     0
  9
$DIMTAD
 70
     1
  9
$DIMZIN
 70
     8
  9
$DIMBLK
  1

  9
$DIMASO
 70
     1
  9
$DIMSHO
 70
     1
  9
$DIMPOST
  1

  9
$DIMAPOST
  1

  9
$DIMALT
 70
     0
  9
$DIMALTD
 70
     3
  9
$DIMALTF
 40
0.03937
  9
$DIMLFAC
 40
1.0
  9
$DIMTOFL
 70
     1
  9
$DIMTVP
 40
0.0
  9
$DIMTIX
 70
     0
  9
$DIMSOXD
 70
     0
  9
$DIMSAH
 70
     0
  9
$DIMBLK1
  1

  9
$DIMBLK2
  1

  9
$DIMSTYLE
  2
ISO-25
  9
$DIMCLRD
 70
     0
  9
$DIMCLRE
 70
     0
  9
$DIMCLRT
 70
     0
  9
$DIMTFAC
 40
1.0
  9
$DIMGAP
 40
0.625
  9
$DIMJUST
 70
     0
  9
$DIMSD1
 70
     0
  9
$DIMSD2
 70
     0
  9
$DIMTOLJ
 70
     0
  9
$DIMTZIN
 70
     8
  9
$DIMALTZ
 70
     0
  9
$DIMALTTZ
 70
     0
  9
$DIMUPT
 70
     0
  9
$DIMDEC
 70
     2
  9
$DIMTDEC
 70
     2
  9
$DIMALTU
 70
     2
  9
$DIMALTTD
 70
     3
  9
$DIMTXSTY
  7
Standard
  9
$DIMAUNIT
 70
     0
  9
$DIMADEC
 70
     0
  9
$DIMALTRND
 40
0.0
  9
$DIMAZIN
 70
     0
  9
$DIMDSEP
 70
    44
  9
$DIMATFIT
 70
     3
  9
$DIMFRAC
 70
     0
  9
$DIMLDRBLK
  1

  9
$DIMLUNIT
 70
     2
  9
$DIMLWD
 70
    -2
  9
$DIMLWE
 70
    -2
  9
$DIMTMOVE
 70
     0
  9
$LUNITS
 70
     2
  9
$LUPREC
 70
     4
  9
$SKETCHINC
 40
1.0
  9
$FILLETRAD
 40
10.0
  9
$AUNITS
 70
     0
  9
$AUPREC
 70
     0
  9
$MENU
  1
.
  9
$ELEVATION
 40
0.0
  9
$PELEVATION
 40
0.0
  9
$THICKNESS
 40
0.0
  9
$LIMCHECK
 70
     0
  9
$CHAMFERA
 40
10.0
  9
$CHAMFERB
 40
10.0
  9
$CHAMFERC
 40
20.0
  9
$CHAMFERD
 40
0.0
  9
$SKPOLY
 70
     0
  9
$TDCREATE
 40
2455923.368535116
  9
$TDUCREATE
 40
2455923.326868449
  9
$TDUPDATE
 40
2455923.368535128
  9
$TDUUPDATE
 40
2455923.326868461
  9
$TDINDWG
 40
0.0000000116
  9
$TDUSRTIMER
 40
0.0000000116
  9
$USRTIMER
 70
     1
  9
$ANGBASE
 50
0.0
  9
$ANGDIR
 70
     0
  9
$PDMODE
 70
     0
  9
$PDSIZE
 40
0.0
  9
$PLINEWID
 40
0.0
  9
$SPLFRAME
 70
     0
  9
$SPLINETYPE
 70
     6
  9
$SPLINESEGS
 70
     8
  9
$HANDSEED
  5
BA
  9
$SURFTAB1
 70
     6
  9
$SURFTAB2
 70
     6
  9
$SURFTYPE
 70
     6
  9
$SURFU
 70
     6
  9
$SURFV
 70
     6
  9
$UCSBASE
  2

  9
$UCSNAME
  2

  9
$UCSORG
 10
0.0
 20
0.0
 30
0.0
  9
$UCSXDIR
 10
1.0
 20
0.0
 30
0.0
  9
$UCSYDIR
 10
0.0
 20
1.0
 30
0.0
  9
$UCSORTHOREF
  2

  9
$UCSORTHOVIEW
 70
     0
  9
$UCSORGTOP
 10
0.0
 20
0.0
 30
0.0
  9
$UCSORGBOTTOM
 10
0.0
 20
0.0
 30
0.0
  9
$UCSORGLEFT
 10
0.0
 20
0.0
 30
0.0
  9
$UCSORGRIGHT
 10
0.0
 20
0.0
 30
0.0
  9
$UCSORGFRONT
 10
0.0
 20
0.0
 30
0.0
  9
$UCSORGBACK
 10
0.0
 20
0.0
 30
0.0
  9
$PUCSBASE
  2

  9
$PUCSNAME
  2

  9
$PUCSORG
 10
0.0
 20
0.0
 30
0.0
  9
$PUCSXDIR
 10
1.0
 20
0.0
 30
0.0
  9
$PUCSYDIR
 10
0.0
 20
1.0
 30
0.0
  9
$PUCSORTHOREF
  2

  9
$PUCSORTHOVIEW
 70
     0
  9
$PUCSORGTOP
 10
0.0
 20
0.0
 30
0.0
  9
$PUCSORGBOTTOM
 10
0.0
 20
0.0
 30
0.0
  9
$PUCSORGLEFT
 10
0.0
 20
0.0
 30
0.0
  9
$PUCSORGRIGHT
 10
0.0
 20
0.0
 30
0.0
  9
$PUCSORGFRONT
 10
0.0
 20
0.0
 30
0.0
  9
$PUCSORGBACK
 10
0.0
 20
0.0
 30
0.0
  9
$USERI1
 70
     0
  9
$USERI2
 70
     0
  9
$USERI3
 70
     0
  9
$USERI4
 70
     0
  9
$USERI5
 70
     0
  9
$USERR1
 40
0.0
  9
$USERR2
 40
0.0
  9
$USERR3
 40
0.0
  9
$USERR4
 40
0.0
  9
$USERR5
 40
0.0
  9
$WORLDVIEW
 70
     1
  9
$SHADEDGE
 70
     3
  9
$SHADEDIF
 70
    70
  9
$TILEMODE
 70
     1
  9
$MAXACTVP
 70
    64
  9
$PINSBASE
 10
0.0
 20
0.0
 30
0.0
  9
$PLIMCHECK
 70
     0
  9
$PEXTMIN
 10
-218.394245
 20
-139.478494
 30
0.0
  9
$PEXTMAX
 10
621.605755
 20
454.521506
 30
0.0
  9
$PLIMMIN
 10
-218.394245
 20
-139.478494
  9
$PLIMMAX
 10
621.605755
 20
454.521506
  9
$UNITMODE
 70
     0
  9
$VISRETAIN
 70
     1
  9
$PLINEGEN
 70
     0
  9
$PSLTSCALE
 70
     1
  9
$TREEDEPTH
 70
  3020
  9
$CMLSTYLE
  2
Standard
  9
$CMLJUST
 70
     0
  9
$CMLSCALE
 40
20.0
  9
$PROXYGRAPHICS
 70
     1
  9
$MEASUREMENT
 70
     1
  9
$CELWEIGHT
370
    -1
  9
$ENDCAPS
280
     0
  9
$JOINSTYLE
280
     0
  9
$LWDISPLAY
290
     0
  9
$INSUNITS
 70
     4
  9
$HYPERLINKBASE
  1

  9
$STYLESHEET
  1

  9
$XEDIT
290
     1
  9
$CEPSNTYPE
380
     0
  9
$PSTYLEMODE
290
     1
  9
$FINGERPRINTGUID
  2
{FAEB1C30-E019-11D5-929B-00C0DF256EC4}
  9
$VERSIONGUID
  2
{FAEB1C32-E019-11D5-929B-00C0DF256EC4}
  9
$EXTNAMES
290
     1
  9
$PSVPSCALE
 40
0.0
  9
$OLESTARTUP
290
     0
  0
ENDSEC
  0
SECTION
  2
CLASSES
  0
CLASS
  1
ACDBDICTIONARYWDFLT
  2
AcDbDictionaryWithDefault
  3
ObjectDBX Classes
 90
        0
280
     0
281
     0
  0
CLASS
  1
ACDBPLACEHOLDER
  2
AcDbPlaceHolder
  3
ObjectDBX Classes
 90
        0
280
     0
281
     0
  0
CLASS
  1
LAYOUT
  2
AcDbLayout
  3
ObjectDBX Classes
 90
        0
280
     0
281
     0
  0
ENDSEC
  0
SECTION
  2
TABLES
  0
TABLE
  2
VPORT
  5
8
330
0
100
AcDbSymbolTable
 70
     2
  0
VPORT
  5
29
330
8
100
AcDbSymbolTableRecord
100
AcDbViewportTableRecord
  2
*ACTIVE
 70
     0
 10
0.0
 20
0.0
 11
1.0
 21
1.0
 12
201.605755
 22
157.521506
 13
0.0
 23
0.0
 14
1.0
 24
1.0
 15
0.0
 25
0.0
 16
0.0
 26
0.0
 36
1.0
 17
0.0
 27
0.0
 37
0.0
 40
594.0
 41
1.414141
 42
50.0
 43
0.0
 44
0.0
 50
0.0
 51
0.0
 71
    16
 72
   100
 73
     1
 74
     0
 75
     0
 76
     0
 77
     0
 78
     0
281
     0
 65
     0
110
0.0
120
0.0
130
0.0
111
1.0
121
0.0
131
0.0
112
0.0
122
1.0
132
0.0
 79
     0
146
0.0
  0
ENDTAB
  0
TABLE
  2
LTYPE
  5
5
330
0
100
AcDbSymbolTable
 70
     3
  0
LTYPE
  5
14
330
5
100
AcDbSymbolTableRecord
100
AcDbLinetypeTableRecord
  2
ByBlock
 70
     0
  3

 72
    65
 73
     0
 40
0.0
  0
LTYPE
  5
15
330
5
100
AcDbSymbolTableRecord
100
AcDbLinetypeTableRecord
  2
ByLayer
 70
     0
  3

 72
    65
 73
     0
 40
0.0
  0
LTYPE
  5
16
330
5
100
AcDbSymbolTableRecord
100
AcDbLinetypeTableRecord
  2
Continuous
 70
     0
  3
Solid line
 72
    65
 73
     0
 40
0.0
  0
LTYPE
  5
2A
330
5
100
AcDbSymbolTableRecord
100
AcDbLinetypeTableRecord
  2
DASHED
 70
     0
  3
__ __ __ __ __
 72
    65
 73
     2
 40
6.25
 49
5.0
 74
     4
 75
     0
340
0
 46
1.0
 50
0.0
 44
0.0
 45
0.0
 49
-1.25
 74
     4
 75
     0
340
0
 46
1.0
 50
0.0
 44
0.0
 45
0.0
  0
LTYPE
  5
B8
330
5
100
AcDbSymbolTableRecord
100
AcDbLinetypeTableRecord
  2
DASHDOT
 70
     0
  3
__ . __ . __ . __ . __
 72
    65
 73
     4
 40
7.5
 49
5.0
 74
     4
 75
     0
340
0
 46
1.0
 50
0.0
 44
0.0
 45
0.0
 49
-1.25
 74
     4
 75
     0
340
0
 46
1.0
 50
0.0
 44
0.0
 45
0.0
 49
0.0
 74
     4
 75
     0
340
0
 46
1.0
 50
0.0
 44
0.0
 45
0.0
 49
-1.25
 74
     4
 75
     0
340
0
 46
1.0
 50
0.0
 44
0.0
 45
0.0
  0
ENDTAB
  0
TABLE
  2
LAYER
  5
2
330
0
100
AcDbSymbolTable
 70
     7
  0
LAYER
  5
10
330
2
100
AcDbSymbolTableRecord
100
AcDbLayerTableRecord
  2
0
 70
     0
 62
     7
  6
Continuous
370
    -3
390
F
  0
LAYER
  5
2B
330
2
100
AcDbSymbolTableRecord
100
AcDbLayerTableRecord
  2
LC-INFO-1-2-mm-A3-0
 70
     1
 62
     7
  6
ByBlock
370
    -3
390
F
  0
LAYER
  5
2C
330
2
100
AcDbSymbolTableRecord
100
AcDbLayerTableRecord
  2
LC-CUT-HIDDEN
 70
     0
 62
     7
  6
DASHED
370
    -3
390
F
  0
LAYER
  5
2D
330
2
100
AcDbSymbolTableRecord
100
AcDbLayerTableRecord
  2
LC-VIEWPORT
 70
     0
 62
     7
  6
ByBlock
370
    -3
390
F
  0
LAYER
  5
2E
330
2
100
AcDbSymbolTableRecord
100
AcDbLayerTableRecord
  2
LC-3D-HIDDEN
 70
     0
 62
     9
  6
DASHED
370
    -3
390
F
  0
LAYER
  5
30
330
2
100
AcDbSymbolTableRecord
100
AcDbLayerTableRecord
  2
LC-001-100-D00-0
 70
     0
 62
     1
  6
ByBlock
370
    -3
390
F
  0
LAYER
  5
90
330
2
100
AcDbSymbolTableRecord
100
AcDbLayerTableRecord
  2
Defpoints
 70
     0
 62
     7
  6
Continuous
290
     0
370
    -3
390
F
  0
ENDTAB
  0
TABLE
  2
STYLE
  5
3
330
0
100
AcDbSymbolTable
 70
     3
  0
STYLE
  5
11
330
3
100
AcDbSymbolTableRecord
100
AcDbTextStyleTableRecord
  2
Standard
 70
     0
 40
0.0
 41
1.0
 50
0.0
 71
     0
 42
2.5
  3
txt
  4

  0
STYLE
  5
2F
330
3
100
AcDbSymbolTableRecord
100
AcDbTextStyleTableRecord
  2
LCTX15-400-0-0-Arial
 70
     0
 40
0.0
 41
0.8
 50
0.0
 71
     0
 42
3.5
  3

  4

1001
ACAD
1000
Arial
1071
 16777218
  0
STYLE
  5
8D
330
3
100
AcDbSymbolTableRecord
100
AcDbTextStyleTableRecord
  2
LCTX15-400-0-0pDIN-Schrift
 70
     0
 40
2.5
 41
0.8
 50
15.0
 71
     0
 42
3.5
  3
STANDARD
  4

  0
ENDTAB
  0
TABLE
  2
VIEW
  5
6
330
0
100
AcDbSymbolTable
 70
     0
  0
ENDTAB
  0
TABLE
  2
UCS
  5
7
330
0
100
AcDbSymbolTable
 70
     0
  0
ENDTAB
  0
TABLE
  2
APPID
  5
9
330
0
100
AcDbSymbolTable
 70
     1
  0
APPID
  5
12
330
9
100
AcDbSymbolTableRecord
100
AcDbRegAppTableRecord
  2
ACAD
 70
     0
  0
ENDTAB
  0
TABLE
  2
DIMSTYLE
  5
A
330
0
100
AcDbSymbolTable
 70
     2
100
AcDbDimStyleTable
  0
DIMSTYLE
105
27
330
A
100
AcDbSymbolTableRecord
100
AcDbDimStyleTableRecord
  2
ISO-25
 70
     0
 41
2.5
 42
0.625
 43
3.75
 44
1.25
 73
     0
 74
     0
 77
     1
 78
     8
140
2.5
141
2.5
143
0.03937
147
0.625
171
     3
172
     1
271
     2
272
     2
274
     3
278
    44
283
     0
284
     8
340
11
  0
DIMSTYLE
105
8E
102
{ACAD_REACTORS
330
8F
330
9D
330
AB
102
}
330
A
100
AcDbSymbolTableRecord
100
AcDbDimStyleTableRecord
  2
LC-DIM-L-0140-02-02
 70
     0
 40
2.0
 41
14.0
 42
0.0
 43
7.5
 44
1.8
 73
     0
 74
     0
 77
     1
 78
     8
 79
     2
140
14.0
141
0.0
146
0.71
147
1.5
176
     5
177
     5
178
     5
179
     2
271
     2
278
    44
289
     1
340
8D
  0
ENDTAB
  0
TABLE
  2
BLOCK_RECORD
  5
1
330
0
100
AcDbSymbolTable
 70
     8
  0
BLOCK_RECORD
  5
1F
330
1
100
AcDbSymbolTableRecord
100
AcDbBlockTableRecord
  2
*Model_Space
340
22
  0
BLOCK_RECORD
  5
1B
330
1
100
AcDbSymbolTableRecord
100
AcDbBlockTableRecord
  2
*Paper_Space
340
1E
  0
BLOCK_RECORD
  5
23
330
1
100
AcDbSymbolTableRecord
100
AcDbBlockTableRecord
  2
*Paper_Space0
340
26
  0
BLOCK_RECORD
  5
64
330
1
100
AcDbSymbolTableRecord
100
AcDbBlockTableRecord
  2
KLON1
340
0
102
{BLKREFS
331
71
102
}
  0
BLOCK_RECORD
  5
72
330
1
100
AcDbSymbolTableRecord
100
AcDbBlockTableRecord
  2
KLON2
340
0
102
{BLKREFS
331
7E
102
}
  0
BLOCK_RECORD
  5
7F
330
1
100
AcDbSymbolTableRecord
100
AcDbBlockTableRecord
  2
KLON3
340
0
102
{BLKREFS
331
84
102
}
  0
BLOCK_RECORD
  5
85
330
1
100
AcDbSymbolTableRecord
100
AcDbBlockTableRecord
  2
KLON4
340
0
102
{BLKREFS
331
8C
102
}
  0
BLOCK_RECORD
  5
91
330
1
100
AcDbSymbolTableRecord
100
AcDbBlockTableRecord
  2
*D5
340
0
  0
BLOCK_RECORD
  5
9E
330
1
100
AcDbSymbolTableRecord
100
AcDbBlockTableRecord
  2
*D6
340
0
  0
BLOCK_RECORD
  5
AC
330
1
100
AcDbSymbolTableRecord
100
AcDbBlockTableRecord
  2
*D7
340
0
  0
ENDTAB
  0
ENDSEC
  0
SECTION
  2
BLOCKS
  0
BLOCK
  5
20
330
1F
100
AcDbEntity
  8
0
100
AcDbBlockBegin
  2
*Model_Space
 70
     0
 71
     0
 10
0.0
 20
0.0
 30
0.0
  3
*Model_Space
  1

  0
ENDBLK
  5
21
330
1F
100
AcDbEntity
  8
0
100
AcDbBlockEnd
  0
BLOCK
  5
1C
330
1B
100
AcDbEntity
 67
     1
  8
0
100
AcDbBlockBegin
  2
*Paper_Space
 70
     0
 71
     0
 10
0.0
 20
0.0
 30
0.0
  3
*Paper_Space
  1

  0
ENDBLK
  5
1D
330
1B
100
AcDbEntity
 67
     1
  8
0
100
AcDbBlockEnd
  0
BLOCK
  5
24
330
23
100
AcDbEntity
  8
0
100
AcDbBlockBegin
  2
*Paper_Space0
 70
     0
 71
     0
 10
0.0
 20
0.0
 30
0.0
  3
*Paper_Space0
  1

  0
ENDBLK
  5
25
330
23
100
AcDbEntity
  8
0
100
AcDbBlockEnd
  0
BLOCK
  5
65
330
64
100
AcDbEntity
  8
0
100
AcDbBlockBegin
  2
KLON1
 70
     0
 71
     0
 10
0.0
 20
0.0
 30
0.0
  3
KLON1
  1

  4
KLON1
  0
LINE
  5
67
330
64
100
AcDbEntity
  8
LC-001-100-D00-0
 62
     7
370
    18
100
AcDbLine
 10
156.723995
 20
224.075916
 30
0.0
 11
157.158404
 21
224.510325
 31
0.0
  0
LINE
  5
68
330
64
100
AcDbEntity
  8
LC-001-100-D00-0
 62
     7
370
    18
100
AcDbLine
 10
154.358404
 20
226.200453
 30
0.0
 11
157.158404
 21
229.000453
 31
0.0
  0
LINE
  5
69
330
64
100
AcDbEntity
  8
LC-001-100-D00-0
 62
     7
370
    18
100
AcDbLine
 10
154.358404
 20
230.690581
 30
0.0
 11
157.158404
 21
233.490581
 31
0.0
  0
LINE
  5
6A
330
64
100
AcDbEntity
  8
LC-001-100-D00-0
 62
     7
370
    18
100
AcDbLine
 10
154.358404
 20
235.180709
 30
0.0
 11
157.158404
 21
237.980709
 31
0.0
  0
LINE
  5
6B
330
64
100
AcDbEntity
  8
LC-001-100-D00-0
 62
     7
370
    18
100
AcDbLine
 10
154.358404
 20
239.670837
 30
0.0
 11
157.158404
 21
242.470837
 31
0.0
  0
LINE
  5
6C
330
64
100
AcDbEntity
  8
LC-001-100-D00-0
 62
     7
370
    18
100
AcDbLine
 10
154.358404
 20
244.160965
 30
0.0
 11
156.158404
 21
245.960965
 31
0.0
  0
LINE
  5
6D
330
64
100
AcDbEntity
  8
LC-001-100-D00-0
 62
     7
370
    18
100
AcDbLine
 10
154.358404
 20
248.651093
 30
0.0
 11
156.158404
 21
250.451093
 31
0.0
  0
LINE
  5
6E
330
64
100
AcDbEntity
  8
LC-001-100-D00-0
 62
     7
370
    18
100
AcDbLine
 10
152.793099
 20
251.575916
 30
0.0
 11
155.287516
 21
254.070333
 31
0.0
  0
LINE
  5
6F
330
64
100
AcDbEntity
  8
LC-001-100-D00-0
 62
     7
370
    18
100
AcDbLine
 10
148.302971
 20
251.575916
 30
0.0
 11
150.495121
 21
253.768066
 31
0.0
  0
LINE
  5
70
330
64
100
AcDbEntity
  8
LC-001-100-D00-0
 62
     7
370
    18
100
AcDbLine
 10
143.812842
 20
251.575916
 30
0.0
 11
145.103152
 21
252.866226
 31
0.0
  0
ENDBLK
  5
66
330
64
100
AcDbEntity
  8
0
100
AcDbBlockEnd
  0
BLOCK
  5
73
330
72
100
AcDbEntity
  8
0
100
AcDbBlockBegin
  2
KLON2
 70
     0
 71
     0
 10
0.0
 20
0.0
 30
0.0
  3
KLON2
  1

  4
KLON2
  0
LINE
  5
75
330
72
100
AcDbEntity
  8
LC-001-100-D00-0
 62
     7
370
    18
100
AcDbLine
 10
240.158404
 20
226.68802
 30
0.0
 11
242.958404
 21
229.48802
 31
0.0
  0
LINE
  5
76
330
72
100
AcDbEntity
  8
LC-001-100-D00-0
 62
     7
370
    18
100
AcDbLine
 10
240.158404
 20
231.178148
 30
0.0
 11
242.958404
 21
233.978148
 31
0.0
  0
LINE
  5
77
330
72
100
AcDbEntity
  8
LC-001-100-D00-0
 62
     7
370
    18
100
AcDbLine
 10
240.158404
 20
235.668276
 30
0.0
 11
242.958404
 21
238.468276
 31
0.0
  0
LINE
  5
78
330
72
100
AcDbEntity
  8
LC-001-100-D00-0
 62
     7
370
    18
100
AcDbLine
 10
240.158404
 20
240.158404
 30
0.0
 11
242.958404
 21
242.958404
 31
0.0
  0
LINE
  5
79
330
72
100
AcDbEntity
  8
LC-001-100-D00-0
 62
     7
370
    18
100
AcDbLine
 10
251.575916
 20
251.575916
 30
0.0
 11
252.744294
 21
252.744294
 31
0.0
  0
LINE
  5
7A
330
72
100
AcDbEntity
  8
LC-001-100-D00-0
 62
     7
370
    18
100
AcDbLine
 10
240.158404
 20
244.648532
 30
0.0
 11
240.585788
 21
245.075916
 31
0.0
  0
LINE
  5
7B
330
72
100
AcDbEntity
  8
LC-001-100-D00-0
 62
     7
370
    18
100
AcDbLine
 10
241.158404
 20
245.648532
 30
0.0
 11
242.958404
 21
247.448532
 31
0.0
  0
LINE
  5
7C
330
72
100
AcDbEntity
  8
LC-001-100-D00-0
 62
     7
370
    18
100
AcDbLine
 10
247.085788
 20
251.575916
 30
0.0
 11
248.988315
 21
253.478443
 31
0.0
  0
LINE
  5
7D
330
72
100
AcDbEntity
  8
LC-001-100-D00-0
 62
     7
370
    18
100
AcDbLine
 10
241.158404
 20
250.13866
 30
0.0
 11
244.960175
 21
253.940431
 31
0.0
  0
ENDBLK
  5
74
330
72
100
AcDbEntity
  8
0
100
AcDbBlockEnd
  0
BLOCK
  5
80
330
7F
100
AcDbEntity
  8
0
100
AcDbBlockBegin
  2
KLON3
 70
     0
 71
     0
 10
0.0
 20
0.0
 30
0.0
  3
KLON3
  1

  4
KLON3
  0
LINE
  5
82
330
7F
100
AcDbEntity
  8
LC-001-100-D00-0
 62
     7
370
    18
100
AcDbLine
 10
250.597302
 20
214.676278
 30
0.0
 11
252.365741
 21
216.444716
 31
0.0
  0
LINE
  5
83
330
7F
100
AcDbEntity
  8
LC-001-100-D00-0
 62
     7
370
    18
100
AcDbLine
 10
244.158404
 20
212.727508
 30
0.0
 11
247.875613
 21
216.444716
 31
0.0
  0
ENDBLK
  5
81
330
7F
100
AcDbEntity
  8
0
100
AcDbBlockEnd
  0
BLOCK
  5
86
330
85
100
AcDbEntity
  8
0
100
AcDbBlockBegin
  2
KLON4
 70
     0
 71
     0
 10
0.0
 20
0.0
 30
0.0
  3
KLON4
  1

  4
KLON4
  0
LINE
  5
88
330
85
100
AcDbEntity
  8
LC-001-100-D00-0
 62
     7
370
    18
100
AcDbLine
 10
152.79622
 20
211.167885
 30
0.0
 11
153.158404
 21
211.530069
 31
0.0
  0
LINE
  5
89
330
85
100
AcDbEntity
  8
LC-001-100-D00-0
 62
     7
370
    18
100
AcDbLine
 10
149.949593
 20
212.811386
 30
0.0
 11
153.158404
 21
216.020197
 31
0.0
  0
LINE
  5
8A
330
85
100
AcDbEntity
  8
LC-001-100-D00-0
 62
     7
370
    18
100
AcDbLine
 10
147.102966
 20
214.454887
 30
0.0
 11
149.092795
 21
216.444716
 31
0.0
  0
LINE
  5
8B
330
85
100
AcDbEntity
  8
LC-001-100-D00-0
 62
     7
370
    18
100
AcDbLine
 10
144.256339
 20
216.098388
 30
0.0
 11
144.602667
 21
216.444716
 31
0.0
  0
ENDBLK
  5
87
330
85
100
AcDbEntity
  8
0
100
AcDbBlockEnd
  0
BLOCK
  5
9B
330
91
100
AcDbEntity
  8
0
100
AcDbBlockBegin
  2
*D5
 70
     1
 71
     0
 10
0.0
 20
0.0
 30
0.0
  3
*D5
  1

  0
LINE
  5
92
330
91
100
AcDbEntity
  8
LC-001-100-D00-0
 62
     5
370
    -2
100
AcDbLine
 10
143.65648
 20
251.575916
 30
0.0
 11
143.65648
 21
325.659506
 31
0.0
  0
LINE
  5
93
330
91
100
AcDbEntity
  8
LC-001-100-D00-0
 62
     5
370
    -2
100
AcDbLine
 10
253.660328
 20
251.575916
 30
0.0
 11
253.660328
 21
325.659506
 31
0.0
  0
LINE
  5
94
330
91
100
AcDbEntity
  8
LC-001-100-D00-0
 62
     5
370
    -2
100
AcDbLine
 10
171.65648
 20
322.059506
 30
0.0
 11
225.660328
 21
322.059506
 31
0.0
  0
SOLID
  5
95
330
91
100
AcDbEntity
  8
LC-001-100-D00-0
 62
     5
100
AcDbTrace
 10
171.65648
 20
326.726173
 30
0.0
 11
171.65648
 21
317.392839
 31
0.0
 12
143.65648
 22
322.059506
 32
0.0
 13
143.65648
 23
322.059506
 33
0.0
  0
SOLID
  5
96
330
91
100
AcDbEntity
  8
LC-001-100-D00-0
 62
     5
100
AcDbTrace
 10
225.660328
 20
317.392839
 30
0.0
 11
225.660328
 21
326.726173
 31
0.0
 12
253.660328
 22
322.059506
 32
0.0
 13
253.660328
 23
322.059506
 33
0.0
  0
MTEXT
  5
97
330
91
100
AcDbEntity
  8
LC-001-100-D00-0
 62
     5
100
AcDbMText
 10
198.946332
 20
352.859506
 30
0.0
 40
28.0
 41
0.0
 71
     5
 72
     1
  1
%%c\A1;110
  7
LCTX15-400-0-0pDIN-Schrift
 73
     1
 44
1.0
  0
POINT
  5
98
330
91
100
AcDbEntity
  8
Defpoints
 62
     0
100
AcDbPoint
 10
143.65648
 20
251.575916
 30
0.0
  0
POINT
  5
99
330
91
100
AcDbEntity
  8
Defpoints
 62
     0
100
AcDbPoint
 10
253.660328
 20
251.575916
 30
0.0
  0
POINT
  5
9A
330
91
100
AcDbEntity
  8
Defpoints
 62
     0
100
AcDbPoint
 10
253.660328
 20
322.059506
 30
0.0
  0
ENDBLK
  5
9C
330
91
100
AcDbEntity
  8
0
100
AcDbBlockEnd
  0
BLOCK
  5
A9
330
9E
100
AcDbEntity
  8
0
100
AcDbBlockBegin
  2
*D6
 70
     1
 71
     0
 10
0.0
 20
0.0
 30
0.0
  3
*D6
  1

  0
LINE
  5
9F
330
9E
100
AcDbEntity
  8
LC-001-100-D00-0
 62
     5
370
    -2
100
AcDbLine
 10
156.058404
 20
254.075916
 30
0.0
 11
119.996015
 21
254.075916
 31
0.0
  0
LINE
  5
A0
330
9E
100
AcDbEntity
  8
LC-001-100-D00-0
 62
     5
370
    -2
100
AcDbLine
 10
155.358404
 20
224.075916
 30
0.0
 11
119.996015
 21
224.075916
 31
0.0
  0
LINE
  5
A1
330
9E
100
AcDbEntity
  8
LC-001-100-D00-0
 62
     5
370
    -2
100
AcDbLine
 10
123.596015
 20
196.075916
 30
0.0
 11
123.596015
 21
168.075916
 31
0.0
  0
LINE
  5
A2
330
9E
100
AcDbEntity
  8
LC-001-100-D00-0
 62
     5
370
    -2
100
AcDbLine
 10
123.596015
 20
282.075916
 30
0.0
 11
123.596015
 21
280.829732
 31
0.0
  0
SOLID
  5
A3
330
9E
100
AcDbEntity
  8
LC-001-100-D00-0
 62
     5
100
AcDbTrace
 10
118.929348
 20
282.075916
 30
0.0
 11
128.262682
 21
282.075916
 31
0.0
 12
123.596015
 22
254.075916
 32
0.0
 13
123.596015
 23
254.075916
 33
0.0
  0
SOLID
  5
A4
330
9E
100
AcDbEntity
  8
LC-001-100-D00-0
 62
     5
100
AcDbTrace
 10
128.262682
 20
196.075916
 30
0.0
 11
118.929348
 21
196.075916
 31
0.0
 12
123.596015
 22
224.075916
 32
0.0
 13
123.596015
 23
224.075916
 33
0.0
  0
MTEXT
  5
A5
330
9E
100
AcDbEntity
  8
LC-001-100-D00-0
 62
     5
100
AcDbMText
 10
92.796015
 20
257.907506
 30
0.0
 40
28.0
 41
0.0
 71
     5
 72
     1
  1
\A1;30
  7
LCTX15-400-0-0pDIN-Schrift
 11
6.123031769111886E-17
 21
1.0
 31
0.0
 73
     1
 44
1.0
  0
POINT
  5
A6
330
9E
100
AcDbEntity
  8
Defpoints
 62
     0
100
AcDbPoint
 10
156.058404
 20
254.075916
 30
0.0
  0
POINT
  5
A7
330
9E
100
AcDbEntity
  8
Defpoints
 62
     0
100
AcDbPoint
 10
155.358404
 20
224.075916
 30
0.0
  0
POINT
  5
A8
330
9E
100
AcDbEntity
  8
Defpoints
 62
     0
100
AcDbPoint
 10
123.596015
 20
224.075916
 30
0.0
  0
ENDBLK
  5
AA
330
9E
100
AcDbEntity
  8
0
100
AcDbBlockEnd
  0
BLOCK
  5
B6
330
AC
100
AcDbEntity
  8
0
100
AcDbBlockBegin
  2
*D7
 70
     1
 71
     0
 10
0.0
 20
0.0
 30
0.0
  3
*D7
  1

  0
LINE
  5
AD
330
AC
100
AcDbEntity
  8
LC-001-100-D00-0
 62
     5
370
    -2
100
AcDbLine
 10
154.358404
 20
251.575916
 30
0.0
 11
154.358404
 21
279.921506
 31
0.0
  0
LINE
  5
AE
330
AC
100
AcDbEntity
  8
LC-001-100-D00-0
 62
     5
370
    -2
100
AcDbLine
 10
242.958404
 20
251.575916
 30
0.0
 11
242.958404
 21
279.921506
 31
0.0
  0
LINE
  5
AF
330
AC
100
AcDbEntity
  8
LC-001-100-D00-0
 62
     5
370
    -2
100
AcDbLine
 10
182.358404
 20
276.321506
 30
0.0
 11
214.958404
 21
276.321506
 31
0.0
  0
SOLID
  5
B0
330
AC
100
AcDbEntity
  8
LC-001-100-D00-0
 62
     5
100
AcDbTrace
 10
182.358404
 20
280.988173
 30
0.0
 11
182.358404
 21
271.654839
 31
0.0
 12
154.358404
 22
276.321506
 32
0.0
 13
154.358404
 23
276.321506
 33
0.0
  0
SOLID
  5
B1
330
AC
100
AcDbEntity
  8
LC-001-100-D00-0
 62
     5
100
AcDbTrace
 10
214.958404
 20
271.654839
 30
0.0
 11
214.958404
 21
280.988173
 31
0.0
 12
242.958404
 22
276.321506
 32
0.0
 13
242.958404
 23
276.321506
 33
0.0
  0
MTEXT
  5
B2
330
AC
100
AcDbEntity
  8
LC-001-100-D00-0
 62
     5
100
AcDbMText
 10
193.627486
 20
307.121506
 30
0.0
 40
28.0
 41
0.0
 71
     5
 72
     1
  1
\A1;%%c88,6
  7
LCTX15-400-0-0pDIN-Schrift
 73
     1
 44
1.0
  0
POINT
  5
B3
330
AC
100
AcDbEntity
  8
Defpoints
 62
     0
100
AcDbPoint
 10
154.358404
 20
251.575916
 30
0.0
  0
POINT
  5
B4
330
AC
100
AcDbEntity
  8
Defpoints
 62
     0
100
AcDbPoint
 10
242.958404
 20
251.575916
 30
0.0
  0
POINT
  5
B5
330
AC
100
AcDbEntity
  8
Defpoints
 62
     0
100
AcDbPoint
 10
242.958404
 20
276.321506
 30
0.0
  0
ENDBLK
  5
B7
330
AC
100
AcDbEntity
  8
0
100
AcDbBlockEnd
  0
ENDSEC
  0
SECTION
  2
ENTITIES
  0
CIRCLE
  5
31
330
1F
100
AcDbEntity
  8
LC-001-100-D00-0
 62
     7
370
    50
100
AcDbCircle
 10
198.658404
 20
105.969015
 30
0.0
 40
42.60000038680713
  0
CIRCLE
  5
32
330
1F
100
AcDbEntity
  8
LC-001-100-D00-0
 62
     7
370
    50
100
AcDbCircle
 10
198.658404
 20
105.969015
 30
0.0
 40
42.5
  0
CIRCLE
  5
33
330
1F
100
AcDbEntity
  8
LC-001-100-D00-0
 62
     7
370
    50
100
AcDbCircle
 10
198.658404
 20
105.969015
 30
0.0
 40
55.001924
  0
CIRCLE
  5
34
330
1F
100
AcDbEntity
  8
LC-001-100-D00-0
 62
     7
370
    50
100
AcDbCircle
 10
198.658404
 20
105.969015
 30
0.0
 40
41.5
  0
LINE
  5
35
330
1F
100
AcDbEntity
  8
LC-001-100-D00-0
 62
     7
370
    50
100
AcDbLine
 10
199.658404
 20
69.169015
 30
0.0
 11
197.658404
 21
69.169015
 31
0.0
  0
LINE
  5
36
330
1F
100
AcDbEntity
  8
LC-001-100-D00-0
 62
     7
370
    50
100
AcDbLine
 10
199.658404
 20
69.169015
 30
0.0
 11
199.658404
 21
64.481065
 31
0.0
  0
LINE
  5
37
330
1F
100
AcDbEntity
  8
LC-001-100-D00-0
 62
     7
370
    50
100
AcDbLine
 10
197.658404
 20
69.169015
 30
0.0
 11
197.658404
 21
64.481065
 31
0.0
  0
LINE
  5
38
330
1F
100
AcDbEntity
  8
LC-001-100-D00-0
 62
     7
370
    50
100
AcDbLine
 10
199.658404
 20
142.769015
 30
0.0
 11
199.658404
 21
147.456965
 31
0.0
  0
LINE
  5
39
330
1F
100
AcDbEntity
  8
LC-001-100-D00-0
 62
     7
370
    50
100
AcDbLine
 10
199.658404
 20
142.769015
 30
0.0
 11
197.658404
 21
142.769015
 31
0.0
  0
LINE
  5
3A
330
1F
100
AcDbEntity
  8
LC-001-100-D00-0
 62
     7
370
    50
100
AcDbLine
 10
197.658404
 20
142.769015
 30
0.0
 11
197.658404
 21
147.456965
 31
0.0
  0
LINE
  5
3B
330
1F
100
AcDbEntity
  8
LC-001-100-D00-0
 62
     7
370
    50
100
AcDbLine
 10
253.408404
 20
216.299268
 30
0.0
 11
244.158404
 21
210.958778
 31
0.0
  0
LINE
  5
3C
330
1F
100
AcDbEntity
  8
LC-001-100-D00-0
 62
     7
370
    50
100
AcDbLine
 10
153.158404
 20
210.958778
 30
0.0
 11
143.908404
 21
216.299268
 31
0.0
  0
LINE
  5
3D
330
1F
100
AcDbEntity
  8
LC-001-100-D00-0
 62
     7
370
    50
100
AcDbLine
 10
153.158404
 20
210.958778
 30
0.0
 11
244.158404
 21
210.958778
 31
0.0
  0
LINE
  5
3E
330
1F
100
AcDbEntity
  8
LC-001-100-D00-0
 62
     7
370
    50
100
AcDbLine
 10
143.908404
 20
216.299268
 30
0.0
 11
143.908404
 21
216.444716
 31
0.0
  0
LINE
  5
3F
330
1F
100
AcDbEntity
  8
LC-001-100-D00-0
 62
     7
370
    50
100
AcDbLine
 10
253.408404
 20
216.444716
 30
0.0
 11
253.408404
 21
216.299268
 31
0.0
  0
LINE
  5
40
330
1F
100
AcDbEntity
  8
LC-001-100-D00-0
 62
     7
370
    50
100
AcDbLine
 10
153.158404
 20
216.444716
 30
0.0
 11
153.158404
 21
210.958778
 31
0.0
  0
LINE
  5
41
330
1F
100
AcDbEntity
  8
LC-001-100-D00-0
 62
     7
370
    50
100
AcDbLine
 10
244.158404
 20
210.958778
 30
0.0
 11
244.158404
 21
216.444716
 31
0.0
  0
LINE
  5
42
330
1F
100
AcDbEntity
  8
LC-001-100-D00-0
 62
     7
370
    50
100
AcDbLine
 10
153.158404
 20
216.444716
 30
0.0
 11
244.158404
 21
216.444716
 31
0.0
  0
LINE
  5
43
330
1F
100
AcDbEntity
  8
LC-001-100-D00-0
 62
     7
370
    50
100
AcDbLine
 10
244.158404
 20
216.444716
 30
0.0
 11
253.408404
 21
216.444716
 31
0.0
  0
LINE
  5
44
330
1F
100
AcDbEntity
  8
LC-001-100-D00-0
 62
     7
370
    50
100
AcDbLine
 10
143.908404
 20
216.444716
 30
0.0
 11
153.158404
 21
216.444716
 31
0.0
  0
LINE
  5
45
330
1F
100
AcDbEntity
  8
LC-001-100-D00-0
 62
     7
370
    50
100
AcDbLine
 10
156.158404
 20
254.075916
 30
0.0
 11
156.158404
 21
245.075916
 31
0.0
  0
LINE
  5
46
330
1F
100
AcDbEntity
  8
LC-001-100-D00-0
 62
     7
370
    50
100
AcDbLine
 10
156.158404
 20
245.075916
 30
0.0
 11
157.158404
 21
245.075916
 31
0.0
  0
LINE
  5
47
330
1F
100
AcDbEntity
  8
LC-001-100-D00-0
 62
     7
370
    50
100
AcDbLine
 10
157.158404
 20
245.075916
 30
0.0
 11
157.158404
 21
224.075916
 31
0.0
  0
LINE
  5
48
330
1F
100
AcDbEntity
  8
LC-001-100-D00-0
 62
     7
370
    50
100
AcDbLine
 10
157.158404
 20
224.075916
 30
0.0
 11
155.358404
 21
224.075916
 31
0.0
  0
LINE
  5
49
330
1F
100
AcDbEntity
  8
LC-001-100-D00-0
 62
     7
370
    50
100
AcDbLine
 10
155.358404
 20
224.075916
 30
0.0
 11
154.358404
 21
225.075916
 31
0.0
  0
LINE
  5
4A
330
1F
100
AcDbEntity
  8
LC-001-100-D00-0
 62
     7
370
    50
100
AcDbLine
 10
154.358404
 20
225.075916
 30
0.0
 11
154.358404
 21
251.575916
 31
0.0
  0
LINE
  5
4B
330
1F
100
AcDbEntity
  8
LC-001-100-D00-0
 62
     7
370
    50
100
AcDbLine
 10
154.358404
 20
251.575916
 30
0.0
 11
143.65648
 21
251.575916
 31
0.0
  0
LINE
  5
4C
330
1F
100
AcDbEntity
  8
LC-001-100-D00-0
 62
     7
370
    50
100
AcDbLine
 10
143.65648
 20
251.575916
 30
0.0
 11
143.65648
 21
252.519406
 31
0.0
  0
ARC
  5
4D
330
1F
100
AcDbEntity
  8
LC-001-100-D00-0
 62
     7
370
    50
100
AcDbCircle
 10
156.035042
 20
204.075921
 30
0.0
 40
49.99999999999996
100
AcDbArc
 50
89.97323
 51
104.333837
  0
LINE
  5
4E
330
1F
100
AcDbEntity
  8
LC-001-100-D00-0
 62
     7
370
    50
100
AcDbLine
 10
156.058404
 20
254.075916
 30
0.0
 11
156.158404
 21
254.075916
 31
0.0
  0
LINE
  5
4F
330
1F
100
AcDbEntity
  8
LC-001-100-D00-0
 62
     7
370
    50
100
AcDbLine
 10
156.158404
 20
254.075916
 30
0.0
 11
241.158404
 21
254.075916
 31
0.0
  0
LINE
  5
50
330
1F
100
AcDbEntity
  8
LC-001-100-D00-0
 62
     7
370
    50
100
AcDbLine
 10
241.158404
 20
245.075916
 30
0.0
 11
241.158404
 21
254.075916
 31
0.0
  0
ELLIPSE
  5
51
330
1F
100
AcDbEntity
  8
LC-001-100-D00-0
 62
     7
370
    50
100
AcDbEllipse
 10
198.658404
 20
169.302397
 30
0.0
 11
0.0
 21
-65.77351918639684
 31
0.0
210
0.0
220
0.0
230
1.0
 40
0.630953
 41
6.259086589157275
 42
6.307284025201916
  0
LINE
  5
52
330
1F
100
AcDbEntity
  8
LC-001-100-D00-0
 62
     7
370
    50
100
AcDbLine
 10
157.158404
 20
224.075916
 30
0.0
 11
197.658404
 21
224.075916
 31
0.0
  0
LINE
  5
53
330
1F
100
AcDbEntity
  8
LC-001-100-D00-0
 62
     7
370
    50
100
AcDbLine
 10
240.158404
 20
224.075916
 30
0.0
 11
240.158404
 21
245.075916
 31
0.0
  0
LINE
  5
54
330
1F
100
AcDbEntity
  8
LC-001-100-D00-0
 62
     7
370
    50
100
AcDbLine
 10
199.658404
 20
224.075916
 30
0.0
 11
240.158404
 21
224.075916
 31
0.0
  0
LINE
  5
55
330
1F
100
AcDbEntity
  8
LC-001-100-D00-0
 62
     7
370
    50
100
AcDbLine
 10
157.158404
 20
245.075916
 30
0.0
 11
240.158404
 21
245.075916
 31
0.0
  0
ARC
  5
56
330
1F
100
AcDbEntity
  8
LC-001-100-D00-0
 62
     7
370
    50
100
AcDbCircle
 10
241.281766
 20
204.075921
 30
0.0
 40
49.99999999999995
100
AcDbArc
 50
75.666163
 51
90.02677
  0
LINE
  5
57
330
1F
100
AcDbEntity
  8
LC-001-100-D00-0
 62
     7
370
    50
100
AcDbLine
 10
253.660328
 20
252.519406
 30
0.0
 11
253.660328
 21
251.575916
 31
0.0
  0
LINE
  5
58
330
1F
100
AcDbEntity
  8
LC-001-100-D00-0
 62
     7
370
    50
100
AcDbLine
 10
253.660328
 20
251.575916
 30
0.0
 11
242.958404
 21
251.575916
 31
0.0
  0
LINE
  5
59
330
1F
100
AcDbEntity
  8
LC-001-100-D00-0
 62
     7
370
    50
100
AcDbLine
 10
242.958404
 20
251.575916
 30
0.0
 11
242.958404
 21
225.075916
 31
0.0
  0
LINE
  5
5A
330
1F
100
AcDbEntity
  8
LC-001-100-D00-0
 62
     7
370
    50
100
AcDbLine
 10
242.958404
 20
225.075916
 30
0.0
 11
241.958404
 21
224.075916
 31
0.0
  0
LINE
  5
5B
330
1F
100
AcDbEntity
  8
LC-001-100-D00-0
 62
     7
370
    50
100
AcDbLine
 10
241.958404
 20
224.075916
 30
0.0
 11
240.158404
 21
224.075916
 31
0.0
  0
LINE
  5
5C
330
1F
100
AcDbEntity
  8
LC-001-100-D00-0
 62
     7
370
    50
100
AcDbLine
 10
241.158404
 20
254.075916
 30
0.0
 11
241.258404
 21
254.075916
 31
0.0
  0
LINE
  5
5D
330
1F
100
AcDbEntity
  8
LC-001-100-D00-0
 62
     7
370
    50
100
AcDbLine
 10
240.158404
 20
245.075916
 30
0.0
 11
241.158404
 21
245.075916
 31
0.0
  0
LINE
  5
5E
330
1F
100
AcDbEntity
  8
LC-001-100-D00-0
 62
     7
370
    50
100
AcDbLine
 10
199.658404
 20
227.626867
 30
0.0
 11
197.658404
 21
227.626867
 31
0.0
  0
LINE
  5
5F
330
1F
100
AcDbEntity
  8
LC-001-100-D00-0
 62
     7
370
    50
100
AcDbLine
 10
199.658404
 20
224.075916
 30
0.0
 11
199.658404
 21
227.626867
 31
0.0
  0
LINE
  5
60
330
1F
100
AcDbEntity
  8
LC-001-100-D00-0
 62
     7
370
    50
100
AcDbLine
 10
197.658404
 20
224.075916
 30
0.0
 11
197.658404
 21
227.626867
 31
0.0
  0
LINE
  5
61
330
1F
100
AcDbEntity
  8
LC-001-100-D00-0
 62
     7
370
    50
100
AcDbLine
 10
199.658404
 20
224.075916
 30
0.0
 11
197.658404
 21
224.075916
 31
0.0
  0
LINE
  5
62
330
1F
100
AcDbEntity
  8
LC-001-100-D00-0
 62
     7
370
    50
100
AcDbLine
 10
199.658404
 20
227.626867
 30
0.0
 11
199.658404
 21
235.056818
 31
0.0
  0
LINE
  5
63
330
1F
100
AcDbEntity
  8
LC-001-100-D00-0
 62
     7
370
    50
100
AcDbLine
 10
197.658404
 20
227.626867
 30
0.0
 11
197.658404
 21
235.056818
 31
0.0
  0
INSERT
  5
71
330
1F
100
AcDbEntity
  8
LC-001-100-D00-0
 62
     7
370
    18
100
AcDbBlockReference
  2
KLON1
 10
0.0
 20
0.0
 30
0.0
  0
INSERT
  5
7E
330
1F
100
AcDbEntity
  8
LC-001-100-D00-0
 62
     7
370
    18
100
AcDbBlockReference
  2
KLON2
 10
0.0
 20
0.0
 30
0.0
  0
INSERT
  5
84
330
1F
100
AcDbEntity
  8
LC-001-100-D00-0
 62
     7
370
    18
100
AcDbBlockReference
  2
KLON3
 10
0.0
 20
0.0
 30
0.0
  0
INSERT
  5
8C
330
1F
100
AcDbEntity
  8
LC-001-100-D00-0
 62
     7
370
    18
100
AcDbBlockReference
  2
KLON4
 10
0.0
 20
0.0
 30
0.0
  0
DIMENSION
  5
8F
330
1F
100
AcDbEntity
  8
LC-001-100-D00-0
 62
     7
370
    18
100
AcDbDimension
  2
*D5
 10
253.660328
 20
322.059506
 30
0.0
 11
198.946332
 21
352.859506
 31
0.0
 70
   160
  1
%%c<>
 71
     5
 42
110.003848
  3
LC-DIM-L-0140-02-02
100
AcDbAlignedDimension
 13
143.65648
 23
251.575916
 33
0.0
 14
253.660328
 24
251.575916
 34
0.0
100
AcDbRotatedDimension
  0
DIMENSION
  5
9D
330
1F
100
AcDbEntity
  8
LC-001-100-D00-0
 62
     7
370
    18
100
AcDbDimension
  2
*D6
 10
123.596015
 20
224.075916
 30
0.0
 11
92.796015
 21
257.907506
 31
0.0
 70
   160
 71
     5
 42
30.0
 53
90.0
  3
LC-DIM-L-0140-02-02
100
AcDbAlignedDimension
 13
156.058404
 23
254.075916
 33
0.0
 14
155.358404
 24
224.075916
 34
0.0
 50
90.0
100
AcDbRotatedDimension
  0
DIMENSION
  5
AB
330
1F
100
AcDbEntity
  8
LC-001-100-D00-0
 62
     7
370
    18
100
AcDbDimension
  2
*D7
 10
242.958404
 20
276.321506
 30
0.0
 11
193.627486
 21
307.121506
 31
0.0
 70
   160
  1
%%c88,6
 71
     5
 42
88.6
  3
LC-DIM-L-0140-02-02
100
AcDbAlignedDimension
 13
154.358404
 23
251.575916
 33
0.0
 14
242.958404
 24
251.575916
 34
0.0
100
AcDbRotatedDimension
  0
LINE
  5
B9
330
1F
100
AcDbEntity
  8
LC-001-100-D00-0
  6
DASHDOT
 62
     7
370
    25
100
AcDbLine
 10
198.658404
 20
222.075916
 30
0.0
 11
198.658404
 21
254.075916
 31
0.0
  0
ENDSEC
  0
SECTION
  2
OBJECTS
  0
DICTIONARY
  5
C
330
0
100
AcDbDictionary
281
     1
  3
ACAD_GROUP
350
D
  3
ACAD_LAYOUT
350
1A
  3
ACAD_MLINESTYLE
350
17
  3
ACAD_PLOTSETTINGS
350
19
  3
ACAD_PLOTSTYLENAME
350
E
  0
DICTIONARY
  5
D
102
{ACAD_REACTORS
330
C
102
}
330
C
100
AcDbDictionary
281
     1
  0
DICTIONARY
  5
1A
102
{ACAD_REACTORS
330
C
102
}
330
C
100
AcDbDictionary
281
     1
  3
Layout1
350
1E
  3
Layout2
350
26
  3
Model
350
22
  0
DICTIONARY
  5
17
102
{ACAD_REACTORS
330
C
102
}
330
C
100
AcDbDictionary
281
     1
  3
Standard
350
18
  0
DICTIONARY
  5
19
102
{ACAD_REACTORS
330
C
102
}
330
C
100
AcDbDictionary
281
     1
  0
ACDBDICTIONARYWDFLT
  5
E
102
{ACAD_REACTORS
330
C
102
}
330
C
100
AcDbDictionary
281
     1
  3
Normal
350
F
100
AcDbDictionaryWithDefault
340
F
  0
LAYOUT
  5
1E
102
{ACAD_REACTORS
330
1A
102
}
330
1A
100
AcDbPlotSettings
  1

  2

  4

  6

 40
0.0
 41
0.0
 42
0.0
 43
0.0
 44
0.0
 45
0.0
 46
0.0
 47
0.0
 48
0.0
 49
0.0
140
0.0
141
0.0
142
1.0
143
1.0
 70
   688
 72
     0
 73
     0
 74
     5
  7

 75
    16
147
1.0
148
0.0
149
0.0
100
AcDbLayout
  1
Layout1
 70
     1
 71
     1
 10
-218.394245
 20
-139.478494
 11
621.605755
 21
454.521506
 12
0.0
 22
0.0
 32
0.0
 14
-218.394245
 24
-139.478494
 34
0.0
 15
621.605755
 25
454.521506
 35
0.0
146
0.0
 13
0.0
 23
0.0
 33
0.0
 16
1.0
 26
0.0
 36
0.0
 17
0.0
 27
1.0
 37
0.0
 76
     0
330
1B
  0
LAYOUT
  5
26
102
{ACAD_REACTORS
330
1A
102
}
330
1A
100
AcDbPlotSettings
  1

  2

  4

  6

 40
0.0
 41
0.0
 42
0.0
 43
0.0
 44
0.0
 45
0.0
 46
0.0
 47
0.0
 48
0.0
 49
0.0
140
0.0
141
0.0
142
1.0
143
1.0
 70
   688
 72
     0
 73
     0
 74
     5
  7

 75
    16
147
1.0
148
0.0
149
0.0
100
AcDbLayout
  1
Layout2
 70
     1
 71
     2
 10
0.0
 20
0.0
 11
0.0
 21
0.0
 12
0.0
 22
0.0
 32
0.0
 14
0.0
 24
0.0
 34
0.0
 15
0.0
 25
0.0
 35
0.0
146
0.0
 13
0.0
 23
0.0
 33
0.0
 16
1.0
 26
0.0
 36
0.0
 17
0.0
 27
1.0
 37
0.0
 76
     0
330
23
  0
LAYOUT
  5
22
102
{ACAD_REACTORS
330
1A
102
}
330
1A
100
AcDbPlotSettings
  1

  2

  4

  6

 40
0.0
 41
0.0
 42
0.0
 43
0.0
 44
0.0
 45
0.0
 46
0.0
 47
0.0
 48
0.0
 49
0.0
140
0.0
141
0.0
142
1.0
143
1.0
 70
  1776
 72
     0
 73
     0
 74
     0
  7

 75
     0
147
1.0
148
0.0
149
0.0
100
AcDbLayout
  1
Model
 70
     1
 71
     0
 10
-218.394245
 20
-139.478494
 11
621.605755
 21
454.521506
 12
0.0
 22
0.0
 32
0.0
 14
-218.394245
 24
-139.478494
 34
0.0
 15
621.605755
 25
454.521506
 35
0.0
146
0.0
 13
0.0
 23
0.0
 33
0.0
 16
1.0
 26
0.0
 36
0.0
 17
0.0
 27
1.0
 37
0.0
 76
     0
330
1F
  0
MLINESTYLE
  5
18
102
{ACAD_REACTORS
330
17
102
}
330
17
100
AcDbMlineStyle
  2
Standard
 70
     0
  3

 62
   256
 51
90.0
 52
90.0
 71
     2
 49
0.5
 62
   256
  6
BYLAYER
 49
-0.5
 62
   256
  6
BYLAYER
  0
ACDBPLACEHOLDER
  5
F
102
{ACAD_REACTORS
330
E
102
}
330
E
  0
ENDSEC
  0
EOF
